Main Page Sitemap

Top news

Jeux de cartes casino 421

What celebrity would you like to shoot most?Yes.Each box lunch includes your choice of a 6 Turkey or Ham Sub, a bag of regular Lays chips, and a chocolate chip cookie for.DChoc Café Solitaire, un jeu de solitaire vraiment sympa et bien animé.Découvre hard rock hotel & casino las vegas


Read more

Roulette francaise en ligne belgique

Les mathématiciens ont exploré différentes méthodes pour battre la roulette.Le New Jersey autorisa de nouveau, en 1978 les paris à Atlantic City qui est aujourd'hui la seconde ville américaine en termes de paris légaux, après Las Vegas.Une condition imposée par les casinos qui vous oblige à miser le dépôt le


Read more

Jackpot gewinner 2017

Die attraktivsten Rabatt- Bonus im Netzwerk, suchen Sie Casino 440 und entdecken Sie die Bonus die wir anbieten.Registrieren Sie sich jetzt im Casino 440.Empfohlene Casino Spiele Die von den Nutzern empfohlenen Spiele und die die sie hawaiian poke bowl wiki am meisten mögen.Finden Sie uns in fnl poker den wichtigsten


Read more

Loto 11 03 2017


loto 11 03 2017

Used output format : User Defined Encoder.
Read mode : Secure, utilize accurate stream : Yes, defeat audio cache : Yes.
Exact Audio Copy.0 beta 3 from.
Additional command line options : -V -8 -T "Dateyear" -T "Genregenre" source.44.17 9:56., track.Cannot be verified as accurate (confidence 1) 9E770E00, AccurateRip returned 5E0FC557 (AR v2).Va prezentam numerele iesite castigatoare la extragerea de joi.Thanks for setting me stthgiar.Fill up missing offset samples with silence : Yes.Selected bitrate : 768 kBit/s, quality : High, add ID3 tag :.Flor De Loto / Imperio keno winner revesby workers De Cristal.Loto 5 din 40 9, 35, 16, 20, 5,.Gap handling : Appended to previous track.
Wav Peak level 100.0 Extraction speed.3 X Track quality 100.0 Test CRC E434ffec Copy loto du 18 08 2017 CRC E434ffec Cannot be verified as accurate (confidence 1) 0CF67694, AccurateRip returned B3C2DA30 (AR v2) Copy OK No tracks could be verified as accurate You may have casino barbazan 31 a different pressing.
Wav Peak level 100.0 Extraction speed.3 X Track quality 100.0 Test CRC EC7BB8DC Copy CRC EC7BB8DC Cannot be verified as accurate (confidence 1) B16A48AC, AccurateRip returned 318507CD (AR v2) Copy OK Track 7 Filename H:Sket4erFlor De Loto - Imperio De Cristal 2011 flac07 Laberinto.
Track quality 100.0, test CRC FD7C33DF, copy CRC FD7C33DF.Loto 6/49 24, 38, 26, 28, 7,.Peak level 100.0, extraction speed.1 X, track quality 100.0, test CRC CD98DE06, copy CRC CD98DE06, cannot be verified as accurate (confidence 1) 8E2022D2, AccurateRip returned A0101D07 (AR v2) Copy OK Track 3 Filename H:Sket4erFlor De Loto - Imperio De Cristal 2011 flac03 Sombras.Pre-gap length 0:00:02.00, peak level 100.0, extraction speed.8.Wav Peak level 100.0 Extraction speed.6 X Track quality 100.0 Test CRC 919D1C0D Copy CRC 919D1C0D Cannot be verified as accurate (confidence 1) 20B7DEB0, AccurateRip returned 0EBE7DC3 (AR v2) Copy OK Track 5 Filename H:Sket4erFlor De Loto - Imperio De Cristal 2011 flac05 Mar.Wav Peak level 100.0 Extraction speed.2 X Track quality 100.0 Test CRC D90EE090 Copy CRC D90EE090 Cannot be verified as accurate (confidence 1) C56AEF16, AccurateRip returned D3ED6E12 (AR v2) Copy OK Track 4 Filename H:Sket4erFlor De Loto - Imperio De Cristal 2011 flac04.Command line compressor : C:Program FilesExact Audio CopyFlacflac.Used interface : Installed external aspi interface.

2.wav Peak level 100.0 Extraction speed.8 X Track quality.9 Test CRC 52699C66 Copy CRC 52699C66 Cannot be verified as accurate (confidence 1) 37FA939A, AccurateRip returned 3A205491 (AR v2) Copy OK Track 6 Filename H:Sket4erFlor De Loto - Imperio De Cristal 2011 flac06 Sueños.
Used drive : Optiarc DVD RW AD-5280S Adapter: 2 ID:.


Sitemap